<svg xmlns="http://www.w3.org/2000/svg">
<defs>
<font
       font-weight="400"
       font-style="normal"
       style="fill-rule:nonzero"
       font-variant="normal"
       id="FontID0">
      <font-face
         id="font-face2911"
         font-family="Arial" />
      <missing-glyph
         id="missing-glyph2913">
        <path
           id="path2915"
           d="M0 0z" />
      </missing-glyph>
      <glyph
         id="glyph2917"
         horiz-adv-x="333"
         unicode=")">
        <path
           id="path2919"
           d="M123.515 -210.504l-63.0161 0c97.3326,156.328 146.014,312.655 146.014,469.351 0,61.1437 -6.99837,121.827 -21.0258,182.142 -10.9887,48.6817 -26.4895,95.6751 -46.3182,140.52 -12.6769,29.3134 -38.8287,78.1485 -78.6703,146.505l63.0161 0c61.1437,-81.6784 106.48,-163.694 135.824,-246.017 24.9854,-70.9967 37.5088,-145.155 37.5088,-222.659 0,-88.0015 -16.8513,-172.841 -50.5233,-255.011 -33.672,-81.9853 -74.6493,-153.657 -122.809,-214.832z" />
      </glyph>
      <glyph
         id="glyph2921"
         horiz-adv-x="333"
         unicode="(">
        <path
           id="path2923"
           d="M233.832 -210.504c-48.4975,61.1744 -89.5055,132.846 -122.993,214.832 -33.5185,82.1695 -50.3392,167.009 -50.3392,255.011 0,77.5039 12.4927,151.662 37.6623,222.659 29.3441,82.323 74.4958,164.339 135.67,246.017l63.0161 0c-39.3505,-67.6816 -65.3488,-116.026 -78.0257,-145.001 -19.9822,-44.8448 -35.483,-91.8383 -46.9935,-140.673 -13.9967,-60.8367 -20.9951,-122.011 -20.9951,-183.492 0,-156.696 48.6817,-313.024 146.014,-469.351l-63.0161 0z" />
      </glyph>
      <glyph
         id="glyph2925"
         horiz-adv-x="333"
         unicode="-">
        <path
           id="path2927"
           d="M31.6768 214.832l0 88.3391 270.143 0 0 -88.3391 -270.143 0z" />
      </glyph>
      <glyph
         id="glyph2929"
         horiz-adv-x="277"
         unicode="/">
        <path
           id="path2931"
           d="M0 -12.1551l207.496 740.17 70.3521 0 -207.005 -740.17 -70.8432 0z" />
      </glyph>
      <glyph
         id="glyph2933"
         horiz-adv-x="277"
         unicode=" " />
      <glyph
         id="glyph2935"
         horiz-adv-x="556"
         unicode="6">
        <path
           id="path2937"
           d="M497.498 540.502l-87.3262 -6.8449c-7.82713,34.5008 -18.8465,59.6703 -33.1809,75.1711 -23.819,25.1696 -53.1631,37.6623 -88.0015,37.6623 -27.9935,0 -52.4878,-7.82713 -73.6671,-23.4814 -27.6559,-20.1664 -49.4797,-49.6639 -65.5023,-88.3391 -15.8077,-38.6752 -24.1567,-93.8335 -24.8319,-165.505 21.1793,32.168 47.0242,56.1712 77.6881,71.8254 30.4798,15.5008 62.6477,23.3586 96.1662,23.3586 58.6574,0 108.505,-21.5169 149.667,-64.6736 41.1615,-43.1873 61.819,-98.8367 61.819,-167.163 0,-44.9983 -9.82228,-86.6816 -29.1599,-125.357 -19.3376,-38.4911 -46.0112,-68.1421 -79.8367,-88.6461 -33.8255,-20.504 -72.163,-30.6639 -115.166,-30.6639 -73.3294,0 -133,26.8271 -179.164,80.8189 -46.3489,53.8384 -69.3391,142.669 -69.3391,266.337 0,138.341 25.5072,238.835 76.6752,301.667 44.5072,54.6671 104.484,82.1695 180.177,82.1695 56.1405,0 102.305,-15.8384 138.31,-47.5153 36.0048,-31.4927 57.5217,-75.1404 64.6736,-130.82zm-358.82 -308.512c0,-30.3263 6.47656,-59.3327 19.3069,-86.9886 12.861,-27.6559 30.8481,-48.6817 53.8384,-63.1695 23.1744,-14.4879 47.5153,-21.8239 72.8383,-21.8239 37.1712,0 69.0015,14.979 95.6751,44.9983 26.6736,29.9886 39.9951,70.659 39.9951,121.98 0,49.5104 -13.168,88.5233 -39.504,117.008 -26.336,28.5153 -59.4862,42.6655 -99.4813,42.6655 -39.8416,0 -73.5136,-14.1502 -101.169,-42.6655 -27.6865,-28.4846 -41.4991,-65.84 -41.4991,-112.005z" />
      </glyph>
      <glyph
         id="glyph2939"
         horiz-adv-x="556"
         unicode="3">
        <path
           id="path2941"
           d="M41.9902 188.987l87.848 11.6946c10.1599,-49.8481 27.3182,-85.6687 51.5056,-107.677 24.3101,-22.008 53.8077,-32.9967 88.6461,-32.9967 41.3457,0 76.3375,14.3344 104.853,43.0032 28.3311,28.6688 42.6655,64.1518 42.6655,106.48 0,40.3327 -13.168,73.6671 -39.504,99.8496 -26.4895,26.1518 -60.008,39.3198 -100.678,39.3198 -16.6672,0 -37.3247,-3.31502 -62.0031,-9.82228l9.85297 77.1663c5.83198,-0.675282 10.4976,-1.01292 14.1502,-1.01292 37.3554,0 70.9967,9.85297 101.016,29.3441 29.9886,19.4911 44.9983,49.6639 44.9983,90.3343 0,32.168 -11.0194,58.9951 -32.8432,79.9902 -21.8239,21.1793 -50.0015,31.8303 -84.5023,31.8303 -34.1631,0 -62.6477,-10.8352 -85.331,-32.168 -22.8368,-21.4862 -37.5088,-53.8077 -43.9854,-96.8108l-87.848 15.6543c10.6817,58.9951 35.176,104.669 73.176,136.99 38.1534,32.3521 85.4845,48.6817 142.147,48.6817 39.0129,0 75.0176,-8.50241 107.861,-25.1696 32.8125,-16.8207 57.9821,-39.6574 75.4781,-68.6639 17.3425,-29.0064 26.1825,-59.6703 26.1825,-92.3294 0,-30.8481 -8.34894,-58.9951 -25.0161,-84.5023 -16.6672,-25.3538 -41.1615,-45.5201 -73.6671,-60.4991 42.3279,-9.66881 75.1711,-30.0193 98.6832,-60.8367 23.3279,-30.6639 34.9919,-69.155 34.9919,-115.35 0,-62.4942 -22.6526,-115.473 -68.3262,-158.998 -45.5201,-43.4943 -103.165,-65.1647 -172.841,-65.1647 -62.8319,0 -115.013,18.6623 -156.512,56.1712 -41.4991,37.3247 -65.1647,85.8528 -70.9967,145.492z" />
      </glyph>
      <glyph
         id="glyph2943"
         horiz-adv-x="556"
         unicode="2">
        <path
           id="path2945"
           d="M503.515 84.5023l0 -84.5023 -473.188 0c-0.644587,21.1793 2.67043,41.4991 10.1599,60.9902 12.0016,32.3521 31.3392,63.9983 57.8594,95.3375 26.6429,31.1857 64.9805,67.344 114.982,108.352 77.8416,63.8141 130.514,114.307 157.832,151.662 27.3489,37.1712 41.008,72.5007 41.008,105.651 0,34.8384 -12.4927,64.1824 -37.3247,88.1856 -25.0161,23.819 -57.5217,35.8206 -97.5168,35.8206 -42.3279,0 -76.1534,-12.6769 -101.507,-38.1534 -25.4765,-25.3538 -38.3069,-60.4991 -38.6445,-105.344l-90.3343 9.17769c6.16962,67.4975 29.4975,118.819 69.8303,154.148 40.3327,35.3295 94.6622,53.0096 162.651,53.0096 68.6639,0 123.024,-19.1841 163.019,-57.1841 40.1486,-38.1534 60.1615,-85.331 60.1615,-141.656 0,-28.6688 -5.83198,-56.8157 -17.6801,-84.5023 -11.664,-27.6559 -31.155,-56.8157 -58.3198,-87.3262 -27.1647,-30.6639 -72.3472,-72.6542 -135.517,-126.001 -52.6413,-44.323 -86.4974,-74.3424 -101.476,-90.1808 -15.0097,-15.6543 -27.3489,-31.4927 -37.1712,-47.4846l351.177 0z" />
      </glyph>
      <glyph
         id="glyph2947"
         horiz-adv-x="556"
         unicode="9">
        <path
           id="path2949"
           d="M54.6671 165.505l84.5023 7.82713c7.15185,-39.6574 20.8416,-68.5104 41.008,-86.4974 20.1664,-17.8336 45.9805,-26.8271 77.6574,-26.8271 27.0113,0 50.6768,6.16962 70.9967,18.6623 20.3505,12.3392 36.987,28.8222 50.0015,49.5104 13.168,20.6575 24.0032,48.651 32.8432,83.6428 8.65588,35.176 13.168,70.9967 13.168,107.523 0,3.80613 -0.184168,9.82228 -0.521809,17.4959 -17.6494,-27.84 -41.6526,-50.6768 -71.9789,-68.0193 -30.5105,-17.4959 -63.5072,-26.1518 -98.8367,-26.1518 -59.3327,0 -109.518,21.4862 -150.496,64.4894 -41.008,43.0032 -61.512,99.512 -61.512,169.833 0,72.6849 21.3328,131.005 64.1824,175.328 42.819,44.3537 96.4732,66.5152 160.993,66.5152 46.5023,0 88.9837,-12.6769 127.659,-37.6623 38.4911,-25.0161 67.8351,-60.8367 87.848,-107.186 19.9822,-46.3182 29.9886,-113.478 29.9886,-201.479 0,-91.3472 -9.82228,-164.186 -29.6817,-218.515 -19.9822,-54.176 -49.4797,-95.3375 -88.6461,-123.669 -39.3505,-28.3311 -85.1776,-42.4814 -138.003,-42.4814 -56.0177,0 -101.661,15.5008 -137.174,46.6558 -35.5137,31.0016 -56.8464,74.68 -63.9983,131.005zm359.833 316.001c0,50.3392 -13.3215,90.4877 -40.1793,119.985 -26.9806,29.6817 -59.1485,44.5072 -96.995,44.5072 -38.9822,0 -72.9918,-15.9919 -101.998,-47.8222 -29.0064,-32.0145 -43.4943,-73.3294 -43.4943,-124.006 0,-45.6736 13.8433,-82.6606 41.3457,-111.176 27.5024,-28.4846 61.3278,-42.6655 101.661,-42.6655 40.8238,0 74.1582,14.1809 100.341,42.6655 26.3053,28.5153 39.3198,68.0193 39.3198,118.512z" />
      </glyph>
      <glyph
         id="glyph2951"
         horiz-adv-x="556"
         unicode="1">
        <path
           id="path2953"
           d="M372.51 0l-87.848 0 0 559.993c-21.1486,-20.1664 -48.8351,-40.3327 -83.1517,-60.4991 -34.5008,-20.1664 -65.3488,-35.3295 -92.6671,-45.336l0 84.8399c49.1421,23.1744 92.1452,51.1679 128.979,84.0112 36.6801,32.9967 62.8319,64.827 78.1792,95.8286l56.5088 0 0 -718.837z" />
      </glyph>
      <glyph
         id="glyph2955"
         horiz-adv-x="556"
         unicode="0">
        <path
           id="path2957"
           d="M41.4991 352.988c0,84.6865 8.65588,152.859 26.1825,204.334 17.3118,51.6897 43.3101,91.5007 77.6574,119.525 34.3166,27.9935 77.5039,41.9902 129.501,41.9902 38.4911,0 72.163,-7.82713 101.169,-23.3279 28.9757,-15.3473 52.8254,-37.6623 71.8254,-66.8529 18.8465,-29.1599 33.672,-64.6429 44.323,-106.48 10.8352,-41.8368 16.1761,-98.1921 16.1761,-169.189 0,-83.9805 -8.65588,-151.662 -25.8449,-203.321 -17.3118,-51.659 -43.1566,-91.5007 -77.5039,-119.678 -34.3166,-28.147 -77.6574,-42.1437 -130.145,-42.1437 -69.0015,0 -123.178,24.6478 -162.497,74.1582 -47.1776,59.4862 -70.8432,156.665 -70.8432,290.985zm90.3343 0c0,-117.499 13.8433,-195.648 41.3457,-234.66 27.5024,-38.8287 61.3278,-58.3198 101.661,-58.3198 40.4862,0 74.3424,19.6446 101.814,58.6574 27.5024,39.0129 41.3457,117.161 41.3457,234.323 0,117.837 -13.8433,196.169 -41.3457,234.845 -27.4717,38.8287 -61.6655,58.1663 -102.643,58.1663 -40.5169,0 -72.6849,-17.1583 -96.8415,-51.3214 -30.1728,-43.525 -45.336,-124.19 -45.336,-241.689z" />
      </glyph>
      <glyph
         id="glyph2959"
         horiz-adv-x="556"
         unicode="5">
        <path
           id="path2961"
           d="M41.4991 187.513l92.3294 7.82713c6.8449,-44.9983 22.6833,-78.6703 47.5153,-101.354 24.9854,-22.6526 55.0048,-33.9789 90.1501,-33.9789 42.3279,0 78.1792,15.9919 107.339,47.8222 29.3441,32.0145 43.9854,74.3424 43.9854,127.014 0,50.155 -13.9967,89.659 -42.1437,118.665 -28.1777,28.9757 -65.0112,43.4943 -110.685,43.4943 -28.3311,0 -53.8384,-6.50726 -76.6445,-19.3376 -22.8368,-12.8304 -40.6704,-29.4975 -53.6849,-50.0015l-82.5071 10.6817 69.3391 367.66 355.996 0 0 -84.0112 -285.644 0 -38.6752 -192.332c43.0032,29.9886 88.1549,44.9983 135.333,44.9983 62.4942,0 115.166,-21.6704 158.169,-64.9805 43.0032,-43.3408 64.4894,-99.0208 64.4894,-167.009 0,-64.827 -19,-120.845 -56.6623,-167.992 -46.0112,-57.8594 -108.659,-86.8351 -188.005,-86.8351 -65.1647,0 -118.328,18.1405 -159.489,54.6671 -41.1615,36.4959 -64.6736,84.8092 -70.5055,145.001z" />
      </glyph>
      <glyph
         id="glyph2963"
         horiz-adv-x="556"
         unicode="8">
        <path
           id="path2965"
           d="M176.832 388.164c-36.4959,13.3215 -63.5072,32.3214 -81.1566,57.1841 -17.4959,24.6478 -26.336,54.3295 -26.336,88.8302 0,52.1502 18.6623,95.8286 56.1712,131.312 37.4781,35.5137 87.142,53.3472 149.329,53.3472 62.4942,0 112.833,-18.1712 150.987,-54.5136 37.9999,-36.3117 56.9999,-80.4813 56.9999,-132.662 0,-33.1502 -8.65588,-62.0031 -25.9983,-86.6509 -17.4959,-24.525 -43.8319,-43.525 -79.3149,-56.8464 43.8319,-14.3344 77.3197,-37.3247 100.31,-69.3391 22.8368,-31.8303 34.3473,-69.9837 34.3473,-114.153 0,-61.3278 -21.6704,-112.68 -64.827,-154.333 -43.3408,-41.6833 -100.341,-62.4942 -171,-62.4942 -70.6897,0 -127.505,20.811 -170.846,62.6477 -43.3408,41.8368 -65.0112,94.0176 -65.0112,156.512 0,46.5023 11.8481,85.4845 35.5137,117.008 23.5121,31.3085 57.1534,52.8254 100.832,64.1518zm-17.6801 148.992c0,-33.8255 11.0194,-61.4813 32.6898,-82.9983 21.8239,-21.4862 50.155,-32.3214 84.9934,-32.3214 33.8255,0 61.6655,10.651 83.3359,31.9838 21.6704,21.3328 32.3214,47.5153 32.3214,78.3327 0,32.3521 -10.9887,59.3327 -33.3344,81.3407 -22.315,22.008 -50.0015,32.9967 -83.3359,32.9967 -33.4878,0 -61.3278,-10.8352 -83.4894,-32.168 -22.1615,-21.4862 -33.1809,-47.3311 -33.1809,-77.1663zm-28.3311 -330.642c0,-25.0161 6.01615,-49.3569 17.8336,-72.6849 11.8481,-23.4814 29.4975,-41.6526 53.0096,-54.4829 23.5121,-12.8304 48.6817,-19.3376 75.6622,-19.3376 42.0209,0 76.6752,13.5056 103.993,40.6704 27.3489,26.9806 41.008,61.3278 41.008,102.98 0,42.3279 -13.9967,77.3504 -42.1744,105.006 -28.147,27.6559 -63.4765,41.4991 -105.804,41.4991 -41.3457,0 -75.5088,-13.6591 -102.674,-41.008 -27.1647,-27.5024 -40.8545,-61.6655 -40.8545,-102.643z" />
      </glyph>
      <glyph
         id="glyph2967"
         horiz-adv-x="556"
         unicode="4">
        <path
           id="path2969"
           d="M323.153 0l0 171.337 -310.476 0 0 80.6655 326.652 463.826 71.8254 0 0 -463.826 96.6881 0 0 -80.6655 -96.6881 0 0 -171.337 -88.0015 0zm0 252.003l0 322.662 -223.979 -322.662 223.979 0z" />
      </glyph>
      <glyph
         id="glyph2971"
         horiz-adv-x="666"
         unicode="B">
        <path
           id="path2973"
           d="M73.176 0l0 715.829 268.67 0c54.6671,0 98.499,-7.33601 131.496,-21.6704 33.1502,-14.4879 58.9951,-36.8335 77.6574,-67.0064 18.6623,-29.9886 28.1777,-61.4813 28.1777,-94.478 0,-30.5105 -8.34894,-59.3327 -25.0161,-86.344 -16.483,-27.0113 -41.6526,-48.8351 -75.1711,-65.5023 43.3408,-12.6462 76.5217,-34.3166 99.8496,-64.827 23.3279,-30.6639 34.9919,-66.8222 34.9919,-108.505 0,-33.4878 -7.15185,-64.6736 -21.3328,-93.4958 -14.1502,-28.8222 -31.6768,-51.0145 -52.4878,-66.6687 -20.8416,-15.6543 -47.0242,-27.3182 -78.3327,-35.3295 -31.3392,-8.0113 -69.8303,-12.0016 -115.504,-12.0016l-272.998 0zm94.8157 414.991l154.854 0c41.8061,0 71.9789,2.8546 90.3343,8.34894 23.9725,7.15185 42.1437,19 54.3295,35.6671 12.1551,16.6672 18.3247,37.4781 18.3247,62.4942 0,23.6656 -5.6785,44.6607 -17.0048,62.6784 -11.5105,18.1405 -27.84,30.4798 -48.8351,37.1405 -21.1486,6.69143 -57.491,10.0064 -108.997,10.0064l-143.006 0 0 -216.336zm0 -330.489l178.182 0c30.6639,0 52.1502,1.1664 64.4894,3.34571 21.8239,3.9903 39.9951,10.4976 54.6671,19.6446 14.672,8.99352 26.6736,22.3457 36.1583,39.6881 9.33116,17.4959 14.1809,37.4781 14.1809,60.3149 0,26.6736 -6.8449,49.8481 -20.504,69.6768 -13.6591,19.6753 -32.6591,33.4878 -56.9999,41.4991 -24.1567,7.82713 -59.1792,11.8174 -104.669,11.8174l-165.505 0 0 -245.987z" />
      </glyph>
      <glyph
         id="glyph2975"
         horiz-adv-x="556"
         unicode="L">
        <path
           id="path2977"
           d="M73.176 0l0 715.829 94.8157 0 0 -631.327 352.497 0 0 -84.5023 -447.313 0z" />
      </glyph>
      <glyph
         id="glyph2979"
         horiz-adv-x="722"
         unicode="H">
        <path
           id="path2981"
           d="M79.9902 0l0 715.829 94.8464 0 0 -293.993 371.988 0 0 293.993 94.8464 0 0 -715.829 -94.8464 0 0 337.334 -371.988 0 0 -337.334 -94.8464 0z" />
      </glyph>
      <glyph
         id="glyph2983"
         horiz-adv-x="667"
         unicode="K">
        <path
           id="path2985"
           d="M73.1588 0l0 715.843 94.8307 0 0 -355.022 355.512 355.022 128.331 0 -300.34 -290.007 313.508 -425.836 -125.006 0 -254.832 362.341 -117.173 -114.338 0 -248.003 -94.8307 0z" />
      </glyph>
      <glyph
         id="glyph2987"
         horiz-adv-x="832"
         unicode="M">
        <path
           id="path2989"
           d="M74.1638 0l0 715.843 142.658 0 169.355 -506.855c15.6677,-47.1577 27.1607,-82.4872 34.1442,-105.989 8.16884,26.0011 20.8473,64.3457 38.19,114.828l171.314 498.016 127.506 0 0 -715.843 -91.3261 0 0 599.16 -208.009 -599.16 -85.5022 0 -207.004 609.339 0 -609.339 -91.3261 0z" />
      </glyph>
      <glyph
         id="glyph2991"
         horiz-adv-x="722"
         unicode="C">
        <path
           id="path2993"
           d="M587.821 250.992l94.8565 -23.9911c-19.8423,-77.6684 -55.6873,-136.989 -107.174,-178.014 -51.6673,-40.8184 -114.673,-61.1503 -189.326,-61.1503 -77.1788,0 -139.85,15.6677 -188.167,47.003 -48.343,31.49 -85.1672,76.9984 -110.344,136.5 -25.1765,59.6557 -37.8292,123.666 -37.8292,192.006 0,74.4988 14.1731,139.489 42.6738,194.996 28.5007,55.4811 68.9842,97.6653 121.656,126.501 52.4919,28.8357 110.344,43.1634 173.504,43.1634 71.6642,0 131.835,-18.1673 180.668,-54.6823 48.8327,-36.4892 82.8222,-87.6669 101.995,-153.816l-93.1557 -22.0069c-16.6727,52.1569 -40.6896,90.0119 -72.3342,113.823 -31.5157,23.8365 -71.1746,35.6646 -119.183,35.6646 -54.9915,0 -100.835,-13.1423 -137.84,-39.4784 -36.9788,-26.5165 -62.98,-61.8461 -77.823,-106.35 -14.9977,-44.323 -22.4965,-90.1665 -22.4965,-137.324 0,-60.9957 8.83884,-114.003 26.4907,-159.511 17.8323,-45.328 45.328,-79.3176 82.848,-101.814 37.4942,-22.5223 78.0034,-33.6804 121.656,-33.6804 53.0073,0 97.8457,15.3327 134.67,45.8434 36.8242,30.6654 61.6657,76.148 74.6534,136.319z" />
      </glyph>
      <glyph
         id="glyph2995"
         horiz-adv-x="667"
         unicode="E">
        <path
           id="path2997"
           d="M79.163 0l0 715.843 517.497 0 0 -84.4972 -422.821 0 0 -219.167 395.995 0 0 -84.0076 -395.995 0 0 -243.674 439.494 0 0 -84.4972 -534.17 0z" />
      </glyph>
      <glyph
         id="glyph2999"
         horiz-adv-x="777"
         unicode="O">
        <path
           id="path3001"
           d="M48.343 348.657c0,118.848 31.825,211.849 95.6553,279.003 63.8303,67.1803 146.163,100.835 247.178,100.835 65.9949,0 125.651,-15.8223 178.658,-47.338 53.0073,-31.6704 93.4907,-75.6584 121.321,-132.17 27.8565,-56.3315 41.6688,-120.497 41.6688,-191.981 0,-72.6692 -14.4823,-137.685 -43.8334,-194.841 -29.3254,-57.3365 -70.8138,-100.655 -124.491,-130.16 -53.8319,-29.5057 -111.658,-44.1684 -173.839,-44.1684 -67.4896,0 -127.661,16.1573 -180.668,48.8327 -53.1619,32.495 -93.3361,76.9984 -120.651,133.33 -27.3411,56.1769 -40.9988,115.833 -40.9988,178.658zm97.6653 -1.49461c0,-86.3269 23.1665,-154.151 69.4996,-203.834 46.4877,-49.6573 104.649,-74.4988 174.664,-74.4988 71.3292,0 130.006,24.9961 176.004,75.1688 45.998,50.1727 69.1646,121.347 69.1646,213.498 0,58.1611 -9.99845,109.004 -29.6604,152.502 -19.6877,43.4984 -48.5234,77.1788 -86.3526,101.17 -37.9838,23.8365 -80.503,35.8192 -127.661,35.8192 -67.1546,0 -124.826,-22.9861 -173.169,-69.1646 -48.343,-45.998 -72.4888,-122.996 -72.4888,-230.66z" />
      </glyph>
      <glyph
         id="glyph3003"
         horiz-adv-x="722"
         unicode="N">
        <path
           id="path3005"
           d="M76.1738 0l0 715.843 97.1499 0 375.999 -562.001 0 562.001 90.8365 0 0 -715.843 -97.1499 0 -375.999 562.49 0 -562.49 -90.8365 0z" />
      </glyph>
      <glyph
         id="glyph3007"
         horiz-adv-x="667"
         unicode="A">
        <path
           id="path3009"
           d="M-1.49461 0l274.983 715.843 102.02 0 292.996 -715.843 -107.999 0 -83.518 216.822 -299.309 0 -78.5188 -216.822 -100.655 0zm206.489 294.001l242.849 0 -74.8338 198.165c-22.6769,60.1711 -39.6846,109.674 -50.688,148.508 -9.14807,-45.998 -21.9811,-91.5065 -38.6538,-136.835l-78.6734 -209.839z" />
      </glyph>
      <glyph
         id="glyph3011"
         horiz-adv-x="722"
         unicode="R">
        <path
           id="path3013"
           d="M78.6703 0l0 715.829 317.321 0c63.8448,0 112.342,-6.50726 145.523,-19.3376 33.1502,-12.8304 59.6396,-35.483 79.6525,-67.9886 19.8287,-32.6591 29.651,-68.6639 29.651,-108.014 0,-50.8303 -16.3295,-93.4958 -49.3263,-128.334 -32.8125,-34.8077 -83.6735,-56.9999 -152.337,-66.4845 25.1696,-12.0016 44.1696,-23.8497 57.1841,-35.6671 27.6559,-25.3231 53.8384,-57.1841 78.6703,-95.184l124.497 -194.819 -119.187 0 -94.6622 148.992c-27.6559,42.8497 -50.4926,75.8464 -68.4797,98.499 -17.8336,22.8368 -33.8562,38.8287 -48.0064,47.8529 -14.1809,9.147 -28.5153,15.5008 -43.1566,19.1534 -10.8352,2.17932 -28.3618,3.34571 -52.8561,3.34571l-109.825 0 0 -317.843 -94.6622 0zm94.6622 399.828l203.659 0c43.1873,0 77.1663,4.51211 101.507,13.5056 24.4943,8.99352 43.0032,23.3279 55.68,43.0032 12.6462,19.6753 19,41.008 19,64.1518 0,33.8562 -12.1858,61.6655 -36.8335,83.5201 -24.525,21.8239 -63.3537,32.6591 -116.517,32.6591l-226.496 0 0 -236.84z" />
      </glyph>
      <glyph
         id="glyph3015"
         horiz-adv-x="666"
         unicode="S">
        <path
           id="path3017"
           d="M44.9983 229.995l89.3213 7.82713c4.17447,-35.8206 14.0274,-65.1647 29.5282,-88.1549 15.5008,-22.9903 39.4733,-41.4991 71.9789,-55.68 32.5056,-14.1502 69.1857,-21.1486 109.825,-21.1486 36.189,0 68.0193,5.34086 95.6751,15.9919 27.6865,10.8352 48.344,25.5072 61.8497,44.1696 13.4749,18.8465 20.3198,39.1663 20.3198,61.3278 0,22.4992 -6.50726,42.0209 -19.6753,58.8416 -12.9838,16.8207 -34.5008,30.8174 -64.3359,42.1744 -19.3069,7.48949 -61.6655,19.1534 -127.475,34.9919 -65.6865,15.8384 -111.851,30.6639 -138.187,44.6607 -34.1631,17.8336 -59.6703,40.1793 -76.491,66.6687 -16.6672,26.4895 -24.9854,56.1712 -24.9854,89.1679 0,36.0048 10.1599,69.8303 30.6639,101.169 20.504,31.4927 50.4926,55.3424 89.8125,71.6719 39.504,16.1454 83.1824,24.3408 131.342,24.3408 53.1631,0 99.8189,-8.50241 140.489,-25.6914 40.5169,-17.0048 71.6719,-42.1437 93.5265,-75.3246 21.6397,-33.1809 33.4878,-70.8432 35.1453,-112.833l-90.8254 -6.8449c-5.00322,45.1825 -21.5169,79.4991 -49.6639,102.52 -28.1777,23.1744 -69.6768,34.6542 -124.682,34.6542 -57.3375,0 -98.9901,-10.4976 -125.326,-31.4927 -26.1518,-20.9951 -39.3198,-46.3489 -39.3198,-75.8464 0,-25.8142 9.33116,-46.9935 27.8093,-63.4765 18.3554,-16.6672 65.84,-33.672 142.853,-51.0145 76.9821,-17.4959 129.838,-32.6591 158.507,-45.6736 41.6526,-19.3376 72.5007,-43.6477 92.3294,-72.9918 19.8287,-29.4975 29.651,-63.5072 29.651,-101.845 0,-38.1534 -10.8352,-73.974 -32.6591,-107.646 -21.8239,-33.672 -53.1631,-59.8545 -93.9869,-78.6703 -40.8545,-18.6623 -86.8351,-27.9935 -137.85,-27.9935 -64.827,0 -119.157,9.33116 -162.835,28.3311 -43.8319,18.8158 -78.1485,47.1469 -103.165,85.1469 -24.8319,37.8465 -37.9999,80.8496 -39.1663,128.672z" />
      </glyph>
      <glyph
         id="glyph3019"
         horiz-adv-x="667"
         unicode="Y">
        <path
           id="path3021"
           d="M278.823 0l0 303.175 -275.834 412.668 115.188 0 141.164 -215.843c26.0011,-40.3288 50.1469,-80.6576 72.6692,-121.167 21.4915,37.4942 47.4927,79.6784 78.158,126.501l138.664 210.509 110.344 0 -285.677 -412.668 0 -303.175 -94.6761 0z" />
      </glyph>
      <glyph
         id="glyph3023"
         horiz-adv-x="610"
         unicode="T">
        <path
           id="path3025"
           d="M259.341 0l0 631.346 -235.84 0 0 84.4972 567.335 0 0 -84.4972 -236.845 0 0 -631.346 -94.6503 0z" />
      </glyph>
      <glyph
         id="glyph3027"
         horiz-adv-x="667"
         unicode="P">
        <path
           id="path3029"
           d="M77.1788 0l0 715.843 269.984 0c47.4927,0 83.8272,-2.345 108.849,-6.85461 35.1492,-5.82384 64.655,-16.9819 88.4915,-33.5 23.6561,-16.3119 42.8284,-39.4784 57.3365,-68.9842 14.4823,-29.6604 21.6719,-62.1811 21.6719,-97.6653 0,-60.8411 -19.3527,-112.508 -58.0065,-154.667 -38.8342,-42.0038 -108.849,-63.1603 -209.993,-63.1603l-183.683 0 0 -291.012 -94.6503 0zm94.6503 375.509l185.178 0c61.1503,0 104.649,11.3127 130.315,34.17 25.6661,22.8315 38.4992,54.8111 38.4992,96.1449 0,30.0211 -7.49884,55.6873 -22.6511,76.9984 -15.1781,21.3369 -34.9946,35.3554 -59.8361,42.1842 -16.0027,4.14884 -45.328,6.33923 -88.3369,6.33923l-183.168 0 0 -255.837z" />
      </glyph>
      <glyph
         id="glyph3031"
         horiz-adv-x="556"
         unicode="e">
        <path
           id="path3033"
           d="M420.823 167.009l90.8561 -11.1728c-14.3344,-53.1631 -40.8545,-94.3246 -79.4991,-123.669 -38.8594,-29.1599 -88.3391,-43.8319 -148.501,-43.8319 -75.8464,0 -136.008,23.3279 -180.362,69.9837 -44.4765,46.6865 -66.638,112.189 -66.638,196.507 0,87.3262 22.4992,155.008 67.3133,203.168 44.9983,48.1599 103.165,72.3472 174.837,72.3472 69.3391,0 126.001,-23.6656 169.833,-70.8432 44.0161,-47.1776 65.9934,-113.662 65.9934,-199.177 0,-5.31017 -0.153473,-13.168 -0.491114,-23.4814l-386.66 0c3.16155,-56.9999 19.3376,-100.678 48.3133,-130.851 29.0064,-30.3263 65.0112,-45.4894 108.352,-45.4894 32.168,0 59.6703,8.50241 82.5071,25.5072 22.8368,16.8207 40.8238,43.8319 54.1453,81.0031zm-288.499 142.147l289.512 0c-3.83683,43.525 -15.0097,76.3375 -33.1809,98.0079 -27.9935,33.8255 -64.3359,50.8303 -108.812,50.8303 -40.3327,0 -74.3424,-13.5056 -101.845,-40.4862 -27.5024,-27.0113 -42.6655,-63.1695 -45.6736,-108.352z" />
      </glyph>
      <glyph
         id="glyph3035"
         horiz-adv-x="222"
         unicode="i">
        <path
           id="path3037"
           d="M66.3311 614.66l0 101.169 88.0015 0 0 -101.169 -88.0015 0zm0 -614.66l0 518.494 88.0015 0 0 -518.494 -88.0015 0z" />
      </glyph>
      <glyph
         id="glyph3039"
         horiz-adv-x="222"
         unicode="l">
        <path
           id="path3041"
           d="M63.9983 0l0 715.829 87.848 0 0 -715.829 -87.848 0z" />
      </glyph>
      <glyph
         id="glyph3043"
         horiz-adv-x="556"
         unicode="o">
        <path
           id="path3045"
           d="M33.1809 259.339c0,95.9821 26.6429,167.163 80.1437,213.328 44.5072,38.3376 98.8367,57.6752 163.019,57.6752 71.3343,0 129.654,-23.3279 174.837,-70.1679 45.3053,-46.6865 67.8351,-111.176 67.8351,-193.499 0,-66.8529 -10.0064,-119.341 -30.0193,-157.494 -19.9822,-38.3376 -49.1728,-68.0193 -87.3262,-89.1679 -38.3376,-21.1793 -79.9902,-31.6768 -125.326,-31.6768 -72.5007,0 -131.189,23.1744 -176.003,69.8303 -44.8448,46.5023 -67.1598,113.509 -67.1598,201.173zm90.3343 0c0,-66.5152 14.4879,-116.179 43.4943,-149.176 28.9757,-33.1502 65.5023,-49.6639 109.334,-49.6639 43.6477,0 79.9902,16.6672 108.997,49.8481 28.8222,33.1502 43.3408,83.827 43.3408,151.816 0,64.1824 -14.5186,112.833 -43.6784,145.83 -29.1599,32.9967 -65.3488,49.5104 -108.659,49.5104 -43.8319,0 -80.3585,-16.5137 -109.334,-49.3263 -29.0064,-32.8432 -43.4943,-82.5071 -43.4943,-148.838z" />
      </glyph>
      <glyph
         id="glyph3047"
         horiz-adv-x="277"
         unicode="f">
        <path
           id="path3049"
           d="M86.8351 0l0 450.167 -77.5039 0 0 68.3262 77.5039 0 0 55.1582c0,34.8384 3.16155,60.8367 9.33116,77.6881 8.50241,22.8368 23.3279,41.315 44.6607,55.4959 21.3328,14.1502 51.1679,21.1793 89.659,21.1793 24.6785,0 52.0274,-2.8546 82.016,-8.84005l-13.168 -76.6752c-18.1712,3.34571 -35.5137,5.00322 -51.8432,5.00322 -26.6429,0 -45.4894,-5.6785 -56.4781,-17.1583 -11.1728,-11.357 -16.6672,-32.6898 -16.6672,-63.9983l0 -47.8529 100.985 0 0 -68.3262 -100.985 0 0 -450.167 -87.5104 0z" />
      </glyph>
      <glyph
         id="glyph3051"
         horiz-adv-x="333"
         unicode="r">
        <path
           id="path3053"
           d="M65.0112 0l0 518.494 78.9773 0 0 -78.4861c20.1664,36.6494 38.8594,60.9902 56.0177,72.6542 17.0048,11.664 35.8206,17.6801 56.3246,17.6801 29.6817,0 59.6703,-9.51533 90.3343,-28.3311l-30.3263 -81.6784c-21.3328,12.8304 -42.8497,19.1534 -64.3359,19.1534 -19.3376,0 -36.4959,-5.83198 -51.8432,-17.3118 -15.3166,-11.664 -26.1518,-27.6865 -32.6591,-48.1599 -9.82228,-31.1857 -14.672,-65.3488 -14.672,-102.52l0 -271.494 -87.8173 0z" />
      </glyph>
      <glyph
         id="glyph3055"
         horiz-adv-x="500"
         unicode="s">
        <path
           id="path3057"
           d="M30.8481 154.824l86.8044 13.6898c4.84975,-34.8384 18.5089,-61.512 40.8545,-80.1743 22.1615,-18.5089 53.3166,-27.84 93.4958,-27.84 40.3327,0 70.3214,8.34894 89.8432,24.6785 19.4911,16.483 29.3134,35.8206 29.3134,57.8287 0,19.9822 -8.65588,35.483 -25.9983,46.9935 -12.0016,7.82713 -41.9902,17.6801 -89.8125,29.6817 -64.3359,16.3295 -109.181,30.3263 -134.013,42.3279 -24.8319,11.8174 -43.8319,28.3311 -56.6623,49.3263 -12.8304,20.9951 -19.3376,44.1696 -19.3376,69.4926 0,23.1744 5.34086,44.5072 15.9919,64.1824 10.4976,19.8287 25.0161,36.1583 43.1873,49.1421 13.6591,10.0064 32.3214,18.693 55.8028,25.6914 23.6962,6.99837 49.0193,10.4976 76.0306,10.4976 40.6397,0 76.3068,-6.01615 107.155,-17.6801 30.8174,-11.664 53.5007,-27.5024 68.1727,-47.4846 14.672,-20.1664 24.6478,-46.84 30.1421,-80.3585l-85.8222 -11.8174c-3.9903,26.6736 -15.3166,47.4846 -34.0096,62.4942 -18.6623,15.0097 -45.1518,22.4992 -79.3149,22.4992 -40.3327,0 -69.1857,-6.66073 -86.344,-19.9822 -17.3425,-13.3522 -25.9983,-29.0064 -25.9983,-46.84 0,-11.5105 3.68335,-21.6704 10.8352,-30.8481 7.18254,-9.48464 18.3247,-17.1583 33.672,-23.4814 8.84005,-3.16155 34.6542,-10.6817 77.6574,-22.3457 62.1873,-16.6672 105.497,-30.1728 129.992,-40.8238 24.6785,-10.4976 44.0161,-25.9983 58.0128,-46.1647 13.9967,-20.1664 20.9951,-45.1825 20.9951,-75.1711 0,-29.3441 -8.65588,-56.8464 -25.6607,-82.8448 -17.1583,-25.8142 -41.8368,-45.8271 -74.0047,-59.9773 -32.168,-14.1809 -68.6639,-21.1793 -109.334,-21.1793 -67.4975,0 -118.819,13.9967 -154.148,41.9902 -35.3602,27.9935 -57.8594,69.4926 -67.4975,124.497z" />
      </glyph>
    </font>
</defs>
</svg>
