<?xml version="1.0" encoding="UTF-8" standalone="no"?>
<!-- Created with Inkscape (http://www.inkscape.org/) -->
<svg
   xmlns:dc="http://purl.org/dc/elements/1.1/"
   xmlns:cc="http://web.resource.org/cc/"
   xmlns:rdf="http://www.w3.org/1999/02/22-rdf-syntax-ns#"
   xmlns:svg="http://www.w3.org/2000/svg"
   xmlns="http://www.w3.org/2000/svg"
   xmlns:sodipodi="http://sodipodi.sourceforge.net/DTD/sodipodi-0.dtd"
   xmlns:inkscape="http://www.inkscape.org/namespaces/inkscape"
   width="404.26999"
   height="540.95001"
   id="svg9354"
   sodipodi:version="0.32"
   inkscape:version="0.45.1"
   version="1.0"
   sodipodi:docbase="C:\Documents and Settings\Hi-Family\My Documents\My Pictures"
   sodipodi:docname="colores.svg"
   inkscape:output_extension="org.inkscape.output.svg.inkscape">
  <defs
     id="defs9356">
 <style
   id="style189"
   type="text/css">
   
    @font-face { font-family:&quot;Arial&quot;;src:url(&quot;#FontID0&quot;) format(svg)}
    .str1 {stroke:#1F1A17;stroke-width:3}
    .str0 {stroke:#FFFFFF;stroke-width:3}
    .fil1 {fill:none}
    .fil0 {fill:#00923F}
    .fil3 {fill:#0093DD}
    .fil9 {fill:#1F1A17}
    .fil7 {fill:#28166F}
    .fil4 {fill:#974578}
    .fil5 {fill:#DA251D}
    .fil6 {fill:#DEDEDD}
    .fil8 {fill:#E77817}
    .fil2 {fill:#FFF500}
    .fnt1 {font-weight:normal;font-size:111;font-family:Arial}
    .fnt0 {font-weight:normal;font-size:139;font-family:Arial}
    .fnt2 {font-weight:bold;font-size:139;font-family:Arial}
   
  </style>

  <font
   fontWeight="400,700"
   fontVariant="normal"
   fullFontName="Arial"
   id="FontID0">
	<font-face
   id="font-face7"
   font-family="Arial">
	</font-face>

   <missing-glyph
   id="missing-glyph9">
  <path
     id="path11"
     d="M0 0z" />
</missing-glyph>

   <glyph
   id="glyph13"
   horiz-adv-x="333"
   unicode=")">
  <path
     id="path15"
     d="M126 -207l-63 0c99,153 144,306 144,468 0,63 -9,117 -18,180 -18,45 -27,99 -54,144 -9,27 -36,72 -72,144l63 0c63,-81 108,-162 135,-243 27,-72 36,-153 36,-225 0,-90 -18,-171 -54,-261 -27,-81 -72,-153 -117,-207z" />
</glyph>

   <glyph
   id="glyph17"
   horiz-adv-x="333"
   unicode="(">
  <path
     id="path19"
     d="M234 -207c-45,54 -90,126 -126,207 -27,90 -45,171 -45,261 0,72 9,153 36,225 27,81 72,162 135,243l63 0c-36,-72 -63,-117 -81,-144 -18,-45 -36,-90 -45,-144 -9,-63 -18,-117 -18,-180 0,-162 45,-315 144,-468l-63 0z" />
</glyph>

   <glyph
   id="glyph21"
   horiz-adv-x="277"
   unicode=" ">
  <path
     id="path23"
     d="M71 0" />
</glyph>

   <glyph
   id="glyph25"
   horiz-adv-x="832"
   unicode="M">
  <path
     id="path27"
     d="M71 0l0 712 216 0 130 -482 129 482 216 0 0 -712 -137 0 0 561 -143 -561 -137 0 -144 561 0 -561 -130 0z" />
</glyph>

   <glyph
   id="glyph29"
   horiz-adv-x="721"
   unicode="B">
  <path
     id="path31"
     d="M71 712l288 0c58,0 101,0 130,-7 21,0 50,-15 72,-29 21,-15 36,-36 57,-58 15,-21 22,-50 22,-86 0,-29 -15,-65 -29,-86 -22,-29 -43,-51 -72,-65 43,-15 72,-36 101,-65 21,-29 29,-65 29,-108 0,-36 -8,-65 -22,-93 -14,-36 -36,-58 -58,-80 -28,-14 -57,-28 -100,-28 -22,-7 -79,-7 -173,-7l-245 0 0 712zm144 -115l0 -166 94 0c57,0 93,0 108,0 21,7 43,15 57,29 15,14 22,29 22,57 0,22 -7,36 -14,51 -15,14 -36,21 -58,29 -14,0 -58,0 -122,0l-87 0zm0 -288l0 -187 137 0c50,0 86,0 101,0 21,7 36,14 50,29 14,14 22,36 22,64 0,22 -8,36 -15,51 -14,14 -28,28 -50,36 -14,7 -58,7 -130,7l-115 0z" />
</glyph>

   <glyph
   id="glyph33"
   horiz-adv-x="721"
   unicode="D">
  <path
     id="path35"
     d="M71 712l267 0c57,0 100,0 136,-7 36,-15 72,-36 108,-72 29,-29 51,-65 65,-116 14,-43 22,-100 22,-165 0,-58 -8,-108 -22,-151 -14,-58 -43,-94 -72,-130 -29,-21 -58,-43 -101,-57 -36,-7 -79,-14 -129,-14l-274 0 0 712zm144 -115l0 -475 108 0c43,0 72,0 87,7 21,7 43,14 57,29 22,14 29,36 43,65 7,35 15,79 15,136 0,51 -8,94 -15,123 -14,28 -28,57 -43,71 -21,15 -43,29 -65,36 -21,0 -64,8 -122,8l-65 0z" />
</glyph>

   <glyph
   id="glyph37"
   horiz-adv-x="610"
   unicode="L">
  <path
     id="path39"
     d="M79 0l0 712 144 0 0 -590 359 0 0 -122 -503 0z" />
</glyph>

   <glyph
   id="glyph41"
   horiz-adv-x="666"
   unicode="E">
  <path
     id="path43"
     d="M71 0l0 712 533 0 0 -115 -389 0 0 -159 360 0 0 -122 -360 0 0 -194 403 0 0 -122 -547 0z" />
</glyph>

   <glyph
   id="glyph45"
   horiz-adv-x="777"
   unicode="O">
  <path
     id="path47"
     d="M43 352c0,72 14,137 36,187 14,36 36,65 64,94 29,28 58,50 94,64 43,22 93,29 151,29 108,0 187,-29 252,-101 65,-64 93,-151 93,-266 0,-115 -28,-208 -93,-273 -58,-65 -144,-100 -252,-100 -101,0 -187,35 -252,100 -65,65 -93,151 -93,266zm151 7c0,-79 14,-144 57,-187 36,-43 79,-65 137,-65 58,0 108,22 144,65 36,43 57,108 57,187 0,79 -21,144 -57,187 -36,36 -79,58 -144,58 -58,0 -108,-22 -144,-65 -36,-36 -50,-101 -50,-180z" />
</glyph>

   <glyph
   id="glyph49"
   horiz-adv-x="777"
   unicode="G">
  <path
     id="path51"
     d="M402 266l0 115 317 0 0 -281c-36,-29 -79,-57 -137,-79 -57,-21 -115,-35 -172,-35 -72,0 -137,14 -195,49 -57,29 -100,72 -129,137 -22,58 -36,122 -36,187 0,72 14,144 43,202 36,57 79,100 137,129 50,22 108,36 172,36 87,0 159,-14 209,-57 50,-36 79,-87 94,-152l-144 -28c-8,36 -29,64 -58,86 -21,22 -57,29 -101,29 -64,0 -115,-22 -151,-58 -36,-43 -57,-100 -57,-180 0,-86 21,-151 57,-194 36,-43 87,-65 151,-65 29,0 58,8 87,22 36,14 57,29 79,43l0 94 -166 0z" />
</glyph>

   <glyph
   id="glyph53"
   horiz-adv-x="721"
   unicode="N">
  <path
     id="path55"
     d="M71 0l0 712 144 0 295 -475 0 475 130 0 0 -712 -144 0 -288 467 0 -467 -137 0z" />
</glyph>

   <glyph
   id="glyph57"
   horiz-adv-x="277"
   unicode="I">
  <path
     id="path59"
     d="M64 0l0 712 151 0 0 -712 -151 0z" />
</glyph>

   <glyph
   id="glyph61"
   horiz-adv-x="721"
   unicode="C">
  <path
     id="path63"
     d="M532 266l137 -51c-22,-72 -58,-136 -108,-172 -51,-36 -108,-57 -187,-57 -94,0 -173,35 -238,100 -57,65 -86,151 -86,266 0,115 29,209 86,273 65,72 144,101 245,101 86,0 158,-21 216,-79 28,-29 57,-72 72,-130l-144 -35c-8,35 -29,71 -51,86 -28,21 -64,36 -100,36 -51,0 -94,-22 -130,-58 -29,-36 -50,-100 -50,-187 0,-86 21,-151 50,-194 36,-36 72,-58 130,-58 36,0 72,15 93,44 29,21 50,57 65,115z" />
</glyph>

   <glyph
   id="glyph65"
   horiz-adv-x="721"
   unicode="A">
  <path
     id="path67"
     d="M719 0l-158 0 -65 165 -288 0 -57 -165 -151 0 280 712 151 0 288 -712zm-266 280l-101 266 -94 -266 195 0z" />
</glyph>

   <glyph
   id="glyph69"
   horiz-adv-x="721"
   unicode="H">
  <path
     id="path71"
     d="M79 0l0 712 93 0 0 -288 374 0 0 288 94 0 0 -712 -94 0 0 338 -374 0 0 -338 -93 0z" />
</glyph>

   <glyph
   id="glyph73"
   horiz-adv-x="667"
   unicode="V">
  <path
     id="path75"
     d="M279 0l-279 720 108 0 189 -522c9,-45 27,-81 36,-117 9,36 18,72 36,117l198 522 90 0 -279 -720 -99 0z" />
</glyph>

   <glyph
   id="glyph77"
   horiz-adv-x="666"
   unicode="P">
  <path
     id="path79"
     d="M71 0l0 712 231 0c93,0 144,0 172,-7 43,-15 79,-36 108,-72 22,-36 36,-80 36,-137 0,-43 -7,-79 -21,-115 -15,-29 -36,-51 -65,-65 -22,-22 -43,-29 -72,-36 -36,-7 -86,-7 -151,-7l-94 0 0 -273 -144 0zm144 597l0 -209 79 0c58,0 94,7 116,14 21,8 36,22 43,36 14,15 21,36 21,58 0,21 -7,43 -28,65 -15,14 -29,21 -58,28 -14,0 -50,8 -101,8l-72 0z" />
</glyph>

   <glyph
   id="glyph81"
   horiz-adv-x="721"
   unicode="R">
  <path
     id="path83"
     d="M71 0l0 712 303 0c79,0 136,0 172,-15 29,-14 58,-36 79,-72 22,-28 29,-72 29,-108 0,-57 -14,-100 -43,-136 -29,-36 -79,-58 -144,-65 36,-22 58,-36 79,-58 22,-21 51,-64 79,-122l94 -136 -173 0 -108 158c-36,50 -64,86 -79,100 -7,15 -21,29 -43,29 -14,7 -36,15 -72,15l-29 0 0 -302 -144 0zm144 410l108 0c72,0 115,7 130,14 21,0 29,14 43,29 7,14 14,29 14,50 0,29 -7,43 -21,58 -15,14 -29,28 -51,28 -14,0 -50,8 -108,8l-115 0 0 -187z" />
</glyph>

   <glyph
   id="glyph85"
   horiz-adv-x="666"
   unicode="S">
  <path
     id="path87"
     d="M35 230l144 14c8,-43 22,-79 51,-101 21,-21 57,-36 100,-36 51,0 87,15 108,29 22,22 36,43 36,72 0,15 -7,29 -14,43 -14,15 -29,22 -58,29 -14,7 -50,14 -115,36 -72,14 -129,36 -158,65 -43,43 -65,93 -65,144 0,36 7,72 29,108 22,28 50,50 86,72 44,14 87,21 144,21 87,0 159,-21 202,-57 43,-44 72,-94 72,-159l-144 -7c-7,36 -22,65 -43,79 -15,15 -51,22 -87,22 -43,0 -79,-7 -100,-22 -15,-14 -22,-29 -22,-43 0,-22 7,-36 22,-43 14,-14 57,-36 129,-50 72,-15 122,-36 158,-51 36,-21 58,-43 79,-72 22,-29 29,-72 29,-115 0,-43 -14,-79 -36,-115 -21,-36 -57,-65 -93,-79 -43,-21 -94,-28 -159,-28 -93,0 -158,21 -208,64 -51,43 -79,101 -87,180z" />
</glyph>

   <glyph
   id="glyph89"
   horiz-adv-x="610"
   unicode="Z">
  <path
     id="path91"
     d="M21 0l0 86 367 460c22,29 50,58 72,87l-396 0 0 79 511 0 0 -79 -403 -497 -43 -50 453 0 0 -86 -561 0z" />
</glyph>

   <glyph
   id="glyph93"
   horiz-adv-x="611"
   unicode="T">
  <path
     id="path95"
     d="M261 0l0 630 -234 0 0 90 567 0 0 -90 -243 0 0 -630 -90 0z" />
</glyph>

   <glyph
   id="glyph97"
   horiz-adv-x="721"
   unicode="U">
  <path
     id="path99"
     d="M71 712l144 0 0 -382c0,-64 0,-107 8,-122 7,-29 21,-50 43,-72 21,-14 57,-29 93,-29 43,0 72,15 94,29 21,15 36,36 36,65 7,22 7,65 7,115l0 396 144 0 0 -374c0,-87 0,-144 -7,-180 -8,-36 -22,-65 -44,-94 -21,-21 -50,-43 -86,-57 -36,-14 -79,-21 -137,-21 -72,0 -122,7 -158,28 -36,14 -65,36 -79,57 -22,29 -36,51 -43,80 -7,43 -15,100 -15,179l0 382z" />
</glyph>

   <glyph
   id="glyph101"
   horiz-adv-x="556"
   unicode="g">
  <path
     id="path103"
     d="M54 -45l81 -9c0,-27 18,-45 27,-63 27,-9 54,-18 90,-18 45,0 72,9 99,18 18,18 36,45 45,72 0,18 0,54 0,117 -36,-45 -81,-72 -144,-72 -63,0 -126,27 -162,81 -36,45 -54,108 -54,180 0,54 9,99 27,135 18,45 36,81 72,99 36,27 72,36 126,36 54,0 108,-27 144,-72l0 63 81 0 0 -450c0,-81 -9,-144 -18,-171 -18,-36 -45,-63 -81,-81 -36,-18 -81,-27 -135,-27 -63,0 -108,9 -144,36 -45,27 -63,72 -54,126zm72 315c0,-72 9,-117 36,-153 27,-27 63,-45 99,-45 45,0 81,18 108,45 27,36 36,81 36,153 0,63 -9,108 -36,135 -36,36 -63,54 -108,54 -36,0 -72,-18 -99,-45 -27,-36 -36,-81 -36,-144z" />
</glyph>

   <glyph
   id="glyph105"
   horiz-adv-x="556"
   unicode="h">
  <path
     id="path107"
     d="M63 0l0 720 90 0 0 -261c45,45 90,72 153,72 45,0 72,-9 99,-27 36,-9 54,-36 63,-63 18,-27 18,-63 18,-108l0 -333 -90 0 0 333c0,36 -9,72 -27,90 -18,18 -45,36 -81,36 -27,0 -45,-9 -72,-27 -18,-9 -36,-27 -45,-54 -9,-18 -18,-54 -18,-90l0 -288 -90 0z" />
</glyph>

   <glyph
   id="glyph109"
   horiz-adv-x="833"
   unicode="m">
  <path
     id="path111"
     d="M63 0l0 522 81 0 0 -72c18,18 36,45 63,54 27,18 63,27 99,27 36,0 63,-9 90,-27 27,-18 45,-36 54,-63 36,63 90,90 162,90 45,0 90,-18 117,-45 27,-27 36,-72 36,-126l0 -360 -81 0 0 324c0,36 -9,63 -9,81 -9,9 -18,27 -36,36 -9,9 -27,9 -54,9 -36,0 -63,-9 -90,-36 -18,-18 -36,-63 -36,-117l0 -297 -81 0 0 333c0,45 -9,72 -27,90 -9,18 -36,27 -72,27 -18,0 -45,0 -63,-18 -27,-9 -36,-27 -45,-54 -9,-27 -18,-63 -18,-108l0 -270 -90 0z" />
</glyph>

   <glyph
   id="glyph113"
   horiz-adv-x="556"
   unicode="b">
  <path
     id="path115"
     d="M144 0l-81 0 0 720 90 0 0 -261c36,45 81,72 144,72 27,0 63,-9 90,-18 27,-18 54,-36 72,-54 18,-27 27,-54 45,-90 9,-27 9,-63 9,-99 0,-90 -18,-162 -63,-207 -45,-54 -99,-72 -162,-72 -54,0 -108,27 -144,72l0 -63zm0 261c0,-63 9,-108 27,-135 27,-45 63,-63 117,-63 36,0 63,18 99,45 27,36 36,90 36,153 0,63 -9,117 -36,153 -27,27 -63,45 -99,45 -36,0 -72,-18 -99,-54 -27,-27 -45,-81 -45,-144z" />
</glyph>

   <glyph
   id="glyph117"
   horiz-adv-x="500"
   unicode="c">
  <path
     id="path119"
     d="M405 189l90 -9c-18,-63 -36,-108 -81,-144 -36,-27 -81,-45 -135,-45 -72,0 -135,18 -171,63 -45,54 -72,117 -72,207 0,54 9,99 27,144 27,45 54,72 90,90 36,27 81,36 126,36 54,0 99,-18 135,-45 36,-27 54,-63 72,-117l-90 -18c-9,36 -18,63 -45,81 -18,18 -45,27 -72,27 -45,0 -81,-18 -108,-45 -27,-36 -45,-81 -45,-153 0,-72 18,-117 45,-153 27,-36 63,-45 99,-45 36,0 63,9 90,27 27,27 36,54 45,99z" />
</glyph>

   <glyph
   id="glyph121"
   horiz-adv-x="556"
   unicode="d">
  <path
     id="path123"
     d="M405 0l0 63c-36,-45 -81,-72 -144,-72 -45,0 -81,9 -117,36 -36,18 -63,54 -81,90 -18,45 -27,90 -27,144 0,54 9,99 27,135 18,45 36,81 72,99 36,27 72,36 117,36 36,0 63,-9 81,-18 27,-18 45,-36 63,-54l0 261 90 0 0 -720 -81 0zm-279 261c0,-72 9,-117 45,-153 27,-27 54,-45 99,-45 36,0 63,9 90,45 27,27 45,81 45,144 0,72 -18,126 -45,153 -27,36 -54,54 -99,54 -36,0 -72,-18 -99,-45 -27,-36 -36,-90 -36,-153z" />
</glyph>

   <glyph
   id="glyph125"
   horiz-adv-x="222"
   unicode="l">
  <path
     id="path127"
     d="M63 0l0 720 90 0 0 -720 -90 0z" />
</glyph>

   <glyph
   id="glyph129"
   horiz-adv-x="556"
   unicode="n">
  <path
     id="path131"
     d="M63 0l0 522 81 0 0 -81c36,63 90,90 162,90 36,0 63,-9 90,-18 27,-9 45,-27 63,-45 9,-18 18,-36 27,-63 0,-18 0,-45 0,-90l0 -315 -90 0 0 315c0,36 0,63 -9,81 -9,18 -18,36 -36,45 -18,9 -36,9 -63,9 -36,0 -63,-9 -90,-27 -27,-27 -45,-72 -45,-144l0 -279 -90 0z" />
</glyph>

   <glyph
   id="glyph133"
   horiz-adv-x="556"
   unicode="o">
  <path
     id="path135"
     d="M36 261c0,90 27,162 81,216 45,36 99,54 162,54 72,0 126,-27 171,-72 45,-45 72,-108 72,-189 0,-72 -9,-126 -36,-162 -18,-36 -45,-63 -81,-90 -45,-18 -81,-27 -126,-27 -72,0 -135,18 -180,63 -45,54 -63,117 -63,207zm90 0c0,-72 9,-117 45,-153 27,-27 63,-45 108,-45 45,0 81,18 108,45 27,36 45,90 45,153 0,63 -18,117 -45,144 -27,36 -63,54 -108,54 -45,0 -81,-18 -108,-54 -36,-27 -45,-81 -45,-144z" />
</glyph>

   <glyph
   id="glyph137"
   horiz-adv-x="556"
   unicode="a">
  <path
     id="path139"
     d="M405 63c-36,-27 -63,-45 -99,-54 -27,-18 -54,-18 -90,-18 -63,0 -99,9 -135,36 -27,27 -45,63 -45,108 0,27 9,54 18,72 9,18 27,36 45,54 18,9 36,18 63,27 18,0 45,9 81,9 72,9 117,18 153,36 0,9 0,18 0,18 0,36 -9,63 -27,81 -18,18 -54,27 -99,27 -36,0 -72,-9 -90,-27 -18,-9 -36,-36 -45,-72l-81 9c9,36 18,72 36,90 18,27 45,45 81,54 27,9 72,18 117,18 45,0 81,-9 108,-18 27,-9 45,-18 54,-36 18,-18 27,-36 36,-63 0,-9 0,-36 0,-81l0 -117c0,-81 0,-135 9,-153 0,-18 9,-45 18,-63l-90 0c-9,18 -18,36 -18,63zm-9 198c-27,-18 -81,-27 -144,-36 -36,0 -63,-9 -72,-18 -18,0 -27,-9 -36,-27 -9,-9 -18,-27 -18,-45 0,-18 9,-36 27,-54 18,-18 45,-27 81,-27 36,0 63,9 90,27 27,9 45,36 63,63 9,18 9,45 9,81l0 36z" />
</glyph>

   <glyph
   id="glyph141"
   horiz-adv-x="556"
   unicode="e">
  <path
     id="path143"
     d="M423 171l90 -18c-18,-54 -45,-90 -81,-117 -36,-36 -90,-45 -144,-45 -81,0 -144,18 -189,63 -36,54 -63,117 -63,198 0,90 27,162 72,207 45,45 99,72 171,72 72,0 126,-27 171,-72 45,-45 63,-117 63,-198 0,-9 0,-18 0,-27l-387 0c9,-54 18,-99 54,-126 27,-36 63,-45 108,-45 27,0 54,9 81,27 18,9 36,36 54,81zm-288 135l288 0c-9,45 -18,81 -36,99 -27,36 -63,54 -108,54 -36,0 -72,-18 -99,-45 -27,-27 -45,-63 -45,-108z" />
</glyph>

   <glyph
   id="glyph145"
   horiz-adv-x="222"
   unicode="i">
  <path
     id="path147"
     d="M63 612l0 108 90 0 0 -108 -90 0zm0 -612l0 522 90 0 0 -522 -90 0z" />
</glyph>

   <glyph
   id="glyph149"
   horiz-adv-x="500"
   unicode="y">
  <path
     id="path151"
     d="M63 -198l-9 81c18,-9 36,-9 45,-9 27,0 36,0 54,9 9,9 18,18 27,27 0,9 9,36 27,63 0,9 0,18 9,27l-198 522 90 0 108 -306c18,-36 27,-72 36,-117 18,36 27,81 45,117l108 306 90 0 -198 -531c-27,-54 -45,-99 -54,-117 -18,-27 -36,-54 -54,-63 -18,-18 -45,-18 -72,-18 -18,0 -36,0 -54,9z" />
</glyph>

   <glyph
   id="glyph153"
   horiz-adv-x="500"
   unicode="s">
  <path
     id="path155"
     d="M27 153l90 18c9,-36 18,-63 45,-81 18,-18 54,-27 90,-27 36,0 72,9 90,18 18,18 27,36 27,63 0,18 -9,36 -27,45 -9,9 -36,18 -90,27 -63,18 -108,36 -135,45 -18,9 -36,27 -54,54 -9,18 -18,45 -18,63 0,27 9,45 18,63 9,27 27,36 45,54 9,9 27,18 54,27 18,9 45,9 72,9 45,0 81,-9 108,-18 36,-9 54,-27 72,-45 9,-27 18,-54 27,-81l-81 -18c-9,27 -18,54 -36,63 -18,18 -45,27 -81,27 -45,0 -72,-9 -90,-18 -18,-18 -27,-36 -27,-54 0,-9 9,-18 18,-27 0,-9 18,-18 27,-27 9,0 36,-9 81,-18 63,-18 108,-27 135,-45 18,-9 36,-18 54,-45 18,-18 18,-45 18,-72 0,-27 -9,-54 -27,-81 -9,-27 -36,-45 -72,-63 -27,-18 -63,-18 -108,-18 -63,0 -117,9 -153,36 -36,27 -54,72 -72,126z" />
</glyph>

   <glyph
   id="glyph157"
   horiz-adv-x="556"
   unicode="u">
  <path
     id="path159"
     d="M405 0l0 72c-36,-54 -90,-81 -162,-81 -36,0 -63,0 -90,18 -27,9 -45,27 -54,45 -18,18 -27,36 -27,63 -9,18 -9,45 -9,81l0 324 90 0 0 -288c0,-45 0,-81 0,-99 9,-18 18,-36 36,-54 18,-9 45,-18 72,-18 27,0 45,9 72,18 27,18 36,36 45,54 18,27 18,63 18,108l0 279 90 0 0 -522 -81 0z" />
</glyph>

   <glyph
   id="glyph161"
   horiz-adv-x="500"
   unicode="x">
  <path
     id="path163"
     d="M9 0l189 270 -180 252 117 0 72 -126c18,-18 27,-45 36,-54 18,18 36,36 45,54l90 126 99 0 -180 -252 198 -270 -108 0 -108 162 -27 45 -135 -207 -108 0z" />
</glyph>

   <glyph
   id="glyph165"
   horiz-adv-x="278"
   unicode="t">
  <path
     id="path167"
     d="M261 81l9 -81c-27,0 -45,-9 -63,-9 -36,0 -63,9 -81,18 -18,9 -27,27 -36,36 0,18 -9,54 -9,108l0 297 -63 0 0 72 63 0 0 126 90 54 0 -180 90 0 0 -72 -90 0 0 -306c0,-18 0,-36 0,-45 9,-9 9,-9 18,-18 9,0 18,-9 27,-9 9,0 27,0 45,9z" />
</glyph>

   <glyph
   id="glyph169"
   horiz-adv-x="333"
   unicode="r">
  <path
     id="path171"
     d="M63 0l0 522 81 0 0 -81c18,36 36,63 54,72 18,9 36,18 54,18 36,0 63,-9 99,-27l-36 -81c-18,9 -45,18 -63,18 -18,0 -36,-9 -54,-18 -9,-9 -27,-27 -27,-45 -9,-36 -18,-72 -18,-108l0 -270 -90 0z" />
</glyph>

   <glyph
   id="glyph173"
   horiz-adv-x="666"
   unicode="Á">
  <path
     id="path175"
     d="M0 0l273 712 101 0 295 -712 -108 0 -87 215 -295 0 -79 -215 -100 0zm201 294l245 0 -72 195c-22,64 -44,115 -51,151 -14,-43 -21,-94 -43,-137l-79 -209zm65 468l64 137 116 0 -108 -137 -72 0z" />
</glyph>

   <glyph
   id="glyph177"
   horiz-adv-x="777"
   unicode="Ó">
  <path
     id="path179"
     d="M43 352c0,72 14,137 36,187 14,36 36,65 64,94 29,28 58,50 94,64 43,22 93,29 151,29 108,0 187,-29 252,-101 65,-64 93,-151 93,-266 0,-115 -28,-208 -93,-273 -58,-65 -144,-100 -252,-100 -101,0 -187,35 -252,100 -65,65 -93,151 -93,266zm151 7c0,-79 14,-144 57,-187 36,-43 79,-65 137,-65 58,0 108,22 144,65 36,43 57,108 57,187 0,79 -21,144 -57,187 -36,36 -79,58 -144,58 -58,0 -108,-22 -144,-65 -36,-36 -50,-101 -50,-180zm108 396l64 144 159 0 -137 -144 -86 0z" />
</glyph>

   <glyph
   id="glyph181"
   horiz-adv-x="721"
   unicode="Ú">
  <path
     id="path183"
     d="M546 712l94 0 0 -410c0,-72 -7,-130 -22,-173 -21,-43 -50,-72 -93,-101 -36,-28 -94,-42 -166,-42 -65,0 -122,14 -165,35 -43,22 -72,58 -87,101 -21,43 -28,101 -28,180l0 410 93 0 0 -410c0,-65 7,-108 15,-137 14,-29 36,-50 64,-72 29,-14 58,-22 101,-22 72,0 122,15 151,51 29,29 43,93 43,180l0 410zm-244 50l64 137 116 0 -108 -137 -72 0z" />
</glyph>

   <glyph
   id="glyph185"
   horiz-adv-x="556"
   unicode="á">
  <path
     id="path187"
     d="M405 63c-36,-27 -63,-45 -99,-54 -27,-18 -54,-18 -90,-18 -63,0 -99,9 -135,36 -27,27 -45,63 -45,108 0,27 9,54 18,72 9,18 27,36 45,54 18,9 36,18 63,27 18,0 45,9 81,9 72,9 117,18 153,36 0,9 0,18 0,18 0,36 -9,63 -27,81 -18,18 -54,27 -99,27 -36,0 -72,-9 -90,-27 -18,-9 -36,-36 -45,-72l-81 9c9,36 18,72 36,90 18,27 45,45 81,54 27,9 72,18 117,18 45,0 81,-9 108,-18 27,-9 45,-18 54,-36 18,-18 27,-36 36,-63 0,-9 0,-36 0,-81l0 -117c0,-81 0,-135 9,-153 0,-18 9,-45 18,-63l-90 0c-9,18 -18,36 -18,63zm-9 198c-27,-18 -81,-27 -144,-36 -36,0 -63,-9 -72,-18 -18,0 -27,-9 -36,-27 -9,-9 -18,-27 -18,-45 0,-18 9,-36 27,-54 18,-18 45,-27 81,-27 36,0 63,9 90,27 27,9 45,36 63,63 9,18 9,45 9,81l0 36zm-171 324l63 135 117 0 -108 -135 -72 0z" />
</glyph>

  </font>
</defs>
</svg>
