<svg xmlns="http://www.w3.org/2000/svg">
<defs>
<font fontWeight="400,700" fontStyle="normal" fontVariant="normal" fullFontName="Arial" id="FontID0">
      <font-face id="font-face4742" font-family="Arial"/>
      <missing-glyph id="missing-glyph4744">
        <path id="path4746" d="M0 0z"/>
      </missing-glyph>
      <glyph id="glyph4748" horiz-adv-x="278" unicode=" ">
        <path id="path4750" d="M41 353"/>
      </glyph>
      <glyph id="glyph4752" horiz-adv-x="723" unicode="B">
        <path id="path4754" d="M71 717l287 0c57,0 103,-5 129,-10 25,0 51,-10 77,-25 20,-16 36,-36 51,-62 15,-26 26,-51 26,-82 0,-36 -11,-67 -31,-92 -16,-31 -41,-52 -72,-67 41,-10 77,-31 103,-62 20,-30 30,-66 30,-107 0,-36 -5,-67 -20,-98 -16,-30 -36,-56 -62,-71 -25,-21 -61,-31 -97,-36 -26,-5 -82,-5 -175,-5l-246 0 0 717zm149 -117l0 -170 92 0c57,0 93,0 108,5 21,0 41,11 56,26 16,10 21,31 21,56 0,21 -5,36 -15,52 -16,15 -31,25 -57,25 -15,0 -56,6 -123,6l-82 0zm0 -288l0 -189 133 0c52,0 82,0 98,0 20,5 41,15 51,30 15,16 21,36 21,62 0,20 -6,41 -16,56 -10,11 -25,26 -46,31 -15,5 -61,10 -128,10l-113 0z"/>
      </glyph>
      <glyph id="glyph4756" horiz-adv-x="723" unicode="C">
        <path id="path4758" d="M533 261l138 -41c-20,-82 -56,-138 -107,-174 -52,-41 -113,-56 -190,-56 -98,0 -174,30 -236,97 -62,61 -92,154 -92,266 0,118 30,211 92,277 62,67 144,98 246,98 87,0 159,-26 210,-77 36,-31 62,-77 77,-134l-143 -30c-11,36 -26,66 -57,87 -25,20 -56,31 -97,31 -51,0 -98,-21 -128,-57 -31,-36 -52,-102 -52,-184 0,-93 21,-154 52,-195 30,-41 77,-57 128,-57 36,0 72,11 97,36 26,26 46,62 62,113z"/>
      </glyph>
      <glyph id="glyph4760" horiz-adv-x="779" unicode="O">
        <path id="path4762" d="M41 353c0,72 15,134 35,185 16,36 36,67 67,97 26,31 57,52 92,67 47,15 98,26 154,26 108,0 190,-31 257,-98 61,-66 92,-154 92,-272 0,-117 -31,-210 -92,-271 -67,-67 -149,-97 -252,-97 -107,0 -194,30 -256,97 -62,61 -97,154 -97,266zm153 5c0,-82 16,-143 57,-184 36,-41 82,-62 138,-62 62,0 108,21 144,62 36,41 56,102 56,184 0,83 -20,144 -56,185 -36,41 -82,62 -144,62 -56,0 -107,-21 -143,-62 -36,-41 -52,-102 -52,-185z"/>
      </glyph>
      <glyph id="glyph4764" horiz-adv-x="779" unicode="G">
        <path id="path4766" d="M405 261l0 123 312 0 0 -287c-30,-26 -71,-56 -133,-77 -56,-20 -113,-30 -174,-30 -72,0 -139,15 -195,45 -57,31 -98,77 -123,134 -31,61 -46,123 -46,189 0,77 15,144 46,200 36,62 82,103 138,134 46,25 103,36 175,36 87,0 159,-16 205,-57 51,-36 87,-87 97,-154l-143 -25c-11,36 -26,61 -57,82 -25,20 -61,31 -102,31 -67,0 -113,-21 -154,-62 -36,-36 -57,-97 -57,-174 0,-87 21,-154 62,-195 36,-41 87,-62 149,-62 25,0 56,5 87,16 31,15 56,25 82,46l0 87 -169 0z"/>
      </glyph>
      <glyph id="glyph4768" horiz-adv-x="723" unicode="A">
        <path id="path4770" d="M717 0l-153 0 -67 164 -287 0 -57 -164 -153 0 276 717 154 0 287 -717zm-266 282l-98 266 -97 -266 195 0z"/>
      </glyph>
      <glyph id="glyph4772" horiz-adv-x="278" unicode="I">
        <path id="path4774" d="M66 0l0 717 149 0 0 -717 -149 0z"/>
      </glyph>
      <glyph id="glyph4776" horiz-adv-x="611" unicode="L">
        <path id="path4778" d="M76 0l0 712 144 0 0 -589 359 0 0 -123 -503 0z"/>
      </glyph>
      <glyph id="glyph4780" horiz-adv-x="723" unicode="H">
        <path id="path4782" d="M71 0l0 717 149 0 0 -282 282 0 0 282 144 0 0 -717 -144 0 0 312 -282 0 0 -312 -149 0z"/>
      </glyph>
      <glyph id="glyph4784" horiz-adv-x="668" unicode="E">
        <path id="path4786" d="M71 0l0 717 534 0 0 -123 -390 0 0 -159 364 0 0 -118 -364 0 0 -194 405 0 0 -123 -549 0z"/>
      </glyph>
      <glyph id="glyph4788" horiz-adv-x="834" unicode="M">
        <path id="path4790" d="M71 0l0 717 216 0 128 -492 133 492 216 0 0 -717 -134 0 0 564 -143 -564 -139 0 -143 564 0 -564 -134 0z"/>
      </glyph>
      <glyph id="glyph4792" horiz-adv-x="611" unicode="F">
        <path id="path4794" d="M71 0l0 717 493 0 0 -123 -344 0 0 -169 297 0 0 -123 -297 0 0 -302 -149 0z"/>
      </glyph>
      <glyph id="glyph4796" horiz-adv-x="723" unicode="D">
        <path id="path4798" d="M71 717l267 0c56,0 103,-5 133,-15 46,-10 82,-36 108,-67 31,-30 56,-66 72,-112 15,-47 20,-103 20,-170 0,-61 -5,-112 -20,-153 -16,-52 -41,-98 -77,-129 -26,-25 -57,-41 -103,-56 -30,-10 -71,-15 -128,-15l-272 0 0 717zm144 -123l0 -471 108 0c41,0 71,0 92,5 20,5 41,15 56,30 16,11 26,36 36,67 10,31 16,77 16,133 0,57 -6,98 -16,129 -10,30 -20,51 -41,66 -15,21 -41,31 -66,36 -21,5 -57,5 -118,5l-67 0z"/>
      </glyph>
      <glyph id="glyph4800" horiz-adv-x="723" unicode="U">
        <path id="path4802" d="M71 717l144 0 0 -389c0,-62 5,-103 5,-118 10,-31 21,-57 46,-72 21,-21 57,-26 98,-26 41,0 71,5 92,26 20,15 31,36 36,62 5,20 5,61 5,117l0 400 149 0 0 -379c0,-82 -5,-144 -16,-180 -5,-35 -20,-66 -41,-92 -20,-25 -51,-41 -87,-56 -36,-15 -77,-20 -138,-20 -67,0 -118,5 -154,20 -36,15 -62,36 -82,61 -21,26 -36,52 -41,82 -11,41 -16,103 -16,180l0 384z"/>
      </glyph>
      <glyph id="glyph4804" horiz-adv-x="668" unicode="P">
        <path id="path4806" d="M71 0l0 717 236 0c87,0 144,-5 169,-10 41,-10 77,-36 103,-72 31,-35 41,-82 41,-138 0,-46 -5,-82 -20,-113 -16,-31 -36,-51 -62,-72 -26,-15 -51,-25 -77,-30 -36,-11 -82,-11 -149,-11l-97 0 0 -271 -144 0zm144 594l0 -200 82 0c56,0 92,0 113,11 20,5 36,15 46,36 10,15 15,30 15,51 0,31 -5,51 -20,66 -16,16 -36,26 -62,31 -15,5 -51,5 -102,5l-72 0z"/>
      </glyph>
      <glyph id="glyph4808" horiz-adv-x="723" unicode="R">
        <path id="path4810" d="M71 0l0 717 308 0c77,0 133,-5 164,-20 36,-10 67,-36 87,-67 21,-36 31,-72 31,-113 0,-56 -15,-102 -51,-133 -31,-36 -77,-61 -139,-67 31,-20 57,-41 77,-61 21,-21 46,-62 82,-118l87 -138 -174 0 -102 153c-36,57 -62,93 -77,108 -16,15 -31,26 -47,31 -15,5 -35,5 -71,5l-26 0 0 -297 -149 0zm149 415l103 0c71,0 112,0 133,5 15,10 31,21 41,31 10,15 15,36 15,56 0,26 -10,41 -20,57 -16,15 -31,25 -57,30 -10,0 -46,0 -102,0l-113 0 0 -179z"/>
      </glyph>
      <glyph id="glyph4812" horiz-adv-x="611" unicode="T">
        <path id="path4814" d="M235 0l0 594 -215 0 0 123 569 0 0 -123 -210 0 0 -594 -144 0z"/>
      </glyph>
      <glyph id="glyph4816" horiz-adv-x="668" unicode="S">
        <path id="path4818" d="M35 230l144 16c5,-46 26,-82 51,-103 26,-20 57,-36 103,-36 46,0 82,10 108,31 20,20 35,41 35,72 0,15 -5,31 -15,41 -10,10 -31,20 -56,31 -16,5 -52,15 -113,30 -77,21 -134,46 -164,72 -46,41 -67,87 -67,144 0,36 10,72 31,102 20,31 51,57 92,72 36,21 82,26 139,26 92,0 159,-21 205,-57 46,-41 66,-92 72,-159l-144 -5c-10,36 -21,62 -41,77 -21,16 -51,26 -92,26 -41,0 -77,-10 -98,-26 -15,-10 -25,-26 -25,-46 0,-15 10,-31 20,-41 21,-15 67,-31 133,-51 72,-16 123,-31 159,-52 31,-15 57,-41 77,-71 21,-31 31,-67 31,-113 0,-41 -10,-82 -36,-118 -20,-36 -56,-62 -97,-77 -41,-20 -93,-25 -154,-25 -92,0 -159,20 -210,61 -47,41 -77,102 -88,179z"/>
      </glyph>
      <glyph id="glyph4820" horiz-adv-x="668" unicode="X">
        <path id="path4822" d="M0 0l246 374 -226 343 169 0 149 -230 138 230 170 0 -226 -348 246 -369 -174 0 -159 246 -159 -246 -174 0z"/>
      </glyph>
      <glyph id="glyph4824" horiz-adv-x="830" unicode="m">
        <path id="path4826" d="M61 0l0 520 81 0 0 -72c21,21 41,41 62,62 30,10 61,20 91,20 41,0 72,-10 102,-30 21,-11 41,-31 51,-62 41,62 92,92 154,92 51,0 91,-20 122,-41 31,-30 41,-71 41,-132l0 -357 -82 0 0 326c0,31 -10,61 -10,71 -10,21 -20,31 -31,41 -20,10 -40,10 -51,10 -40,0 -71,-10 -91,-30 -31,-31 -41,-61 -41,-123l0 -295 -82 0 0 336c0,41 -10,72 -31,82 -10,20 -30,30 -61,30 -30,0 -51,0 -71,-20 -21,-10 -41,-31 -51,-51 -10,-31 -10,-61 -10,-112l0 -265 -92 0z"/>
      </glyph>
      <glyph id="glyph4828" horiz-adv-x="554" unicode="d">
        <path id="path4830" d="M397 0l0 61c-30,-51 -81,-71 -142,-71 -41,0 -82,10 -113,30 -30,20 -61,61 -81,102 -21,41 -31,82 -31,133 0,51 10,102 31,142 20,41 41,72 71,92 41,31 82,41 123,41 30,0 61,-10 81,-20 21,-10 41,-31 61,-51l0 255 82 0 0 -714 -82 0zm-275 255c0,-62 20,-113 41,-143 30,-31 61,-51 102,-51 41,0 71,10 102,51 20,30 30,71 30,143 0,71 -10,122 -40,153 -21,30 -62,51 -92,51 -41,0 -72,-21 -102,-51 -31,-31 -41,-82 -41,-153z"/>
      </glyph>
      <glyph id="glyph4832" horiz-adv-x="554" unicode="n">
        <path id="path4834" d="M61 0l0 520 81 0 0 -82c41,62 92,92 164,92 30,0 61,-10 91,-20 21,-10 41,-21 51,-41 21,-21 31,-41 31,-72 0,-10 10,-40 10,-81l0 -316 -92 0 0 316c0,30 0,61 -10,81 -10,11 -20,31 -41,41 -10,10 -30,10 -61,10 -30,0 -61,-10 -92,-30 -30,-21 -40,-72 -40,-133l0 -285 -92 0z"/>
      </glyph>
      <glyph id="glyph4836" horiz-adv-x="554" unicode="o">
        <path id="path4838" d="M30 255c0,102 31,173 82,214 41,41 102,61 163,61 71,0 133,-20 173,-71 41,-51 72,-113 72,-194 0,-61 -10,-123 -31,-153 -20,-41 -51,-72 -92,-92 -40,-20 -81,-30 -122,-30 -71,0 -133,20 -173,71 -51,41 -72,112 -72,194zm92 0c0,-62 10,-113 41,-143 30,-31 71,-51 112,-51 41,0 82,20 112,51 21,30 41,81 41,153 0,61 -20,112 -41,143 -30,30 -71,51 -112,51 -41,0 -82,-21 -112,-51 -31,-31 -41,-82 -41,-153z"/>
      </glyph>
      <glyph id="glyph4840" horiz-adv-x="221" unicode="i">
        <path id="path4842" d="M61 612l0 102 92 0 0 -102 -92 0zm0 -612l0 520 92 0 0 -520 -92 0z"/>
      </glyph>
      <glyph id="glyph4844" horiz-adv-x="498" unicode="c">
        <path id="path4846" d="M397 193l92 -20c-10,-51 -30,-102 -71,-133 -41,-30 -92,-50 -143,-50 -71,0 -133,20 -173,71 -41,41 -62,112 -62,194 0,61 11,102 31,142 10,51 41,82 82,103 40,20 81,30 122,30 51,0 102,-20 133,-41 40,-30 61,-71 71,-122l-82 -21c-10,41 -20,62 -40,82 -21,20 -51,31 -82,31 -41,0 -82,-21 -102,-51 -31,-31 -41,-82 -41,-153 0,-62 10,-113 41,-143 20,-41 61,-51 102,-51 31,0 61,10 82,30 20,21 40,51 40,102z"/>
      </glyph>
      <glyph id="glyph4848" horiz-adv-x="554" unicode="a">
        <path id="path4850" d="M397 61c-30,-21 -61,-41 -91,-51 -31,-20 -62,-20 -92,-20 -61,0 -102,10 -133,40 -30,31 -41,61 -41,102 0,31 0,51 11,72 10,20 30,40 51,51 10,10 40,20 61,30 20,0 41,10 71,10 72,11 133,21 163,31 0,10 0,20 0,20 0,41 -10,62 -30,82 -21,20 -51,31 -92,31 -41,0 -71,-11 -92,-21 -20,-20 -41,-41 -51,-81l-81 10c10,41 20,71 40,92 21,20 41,41 72,51 41,10 71,20 122,20 41,0 82,-10 102,-20 31,-10 51,-21 61,-41 21,-10 31,-31 31,-51 0,-21 0,-51 0,-82l0 -122c0,-82 10,-133 10,-153 0,-21 11,-41 21,-61l-92 0c-10,20 -10,40 -21,61zm0 194c-30,-11 -81,-21 -142,-31 -41,0 -62,-10 -82,-20 -10,0 -20,-11 -31,-21 -10,-20 -10,-30 -10,-41 0,-30 10,-51 21,-61 20,-20 51,-20 81,-20 31,0 61,0 92,20 20,10 41,31 51,61 10,21 20,41 20,82l0 31z"/>
      </glyph>
      <glyph id="glyph4852" horiz-adv-x="554" unicode="g">
        <path id="path4854" d="M51 -40l81 -11c10,-30 21,-51 31,-61 20,-20 51,-20 92,-20 40,0 71,0 91,20 21,21 41,41 41,72 10,10 10,50 10,111 -40,-51 -81,-71 -142,-71 -72,0 -123,30 -164,81 -40,51 -61,112 -61,184 0,41 10,92 31,132 20,41 41,72 71,92 41,31 82,41 123,41 61,0 112,-30 153,-71l0 61 81 0 0 -449c0,-81 -10,-142 -30,-173 -11,-30 -41,-61 -72,-81 -41,-21 -81,-31 -132,-31 -62,0 -113,21 -153,51 -31,21 -51,61 -51,123zm71 305c0,-61 10,-112 41,-143 30,-31 61,-51 102,-51 41,0 71,20 102,51 20,31 41,71 41,143 0,61 -21,112 -41,143 -31,30 -61,51 -102,51 -41,0 -72,-21 -102,-51 -31,-31 -41,-82 -41,-143z"/>
      </glyph>
      <glyph id="glyph4856" horiz-adv-x="221" unicode="l">
        <path id="path4858" d="M61 0l0 714 92 0 0 -714 -92 0z"/>
      </glyph>
      <glyph id="glyph4860" horiz-adv-x="554" unicode="e">
        <path id="path4862" d="M418 163l92 -10c-10,-51 -41,-92 -82,-123 -41,-30 -82,-40 -143,-40 -81,0 -143,20 -183,71 -41,41 -62,112 -62,194 0,81 21,153 62,204 51,41 102,71 173,71 71,0 133,-30 173,-71 41,-51 62,-113 62,-204 0,0 0,-11 0,-21l-388 0c10,-51 20,-102 51,-132 31,-31 71,-41 112,-41 31,0 61,10 82,20 20,21 41,51 51,82zm-286 143l286 0c0,40 -10,81 -31,102 -30,30 -61,51 -112,51 -41,0 -71,-21 -102,-41 -20,-31 -41,-61 -41,-112z"/>
      </glyph>
      <glyph id="glyph4864" horiz-adv-x="498" unicode="x">
        <path id="path4866" d="M10 0l183 265 -173 255 112 0 82 -123c10,-20 20,-40 30,-61 21,21 31,41 41,61l92 123 102 0 -184 -245 194 -275 -102 0 -112 163 -31 41 -132 -204 -102 0z"/>
      </glyph>
      <glyph id="glyph4868" horiz-adv-x="276" unicode="t">
        <path id="path4870" d="M255 81l10 -81c-21,0 -41,-10 -61,-10 -31,0 -62,10 -72,20 -20,10 -30,20 -41,41 -10,10 -10,51 -10,102l0 295 -61 0 0 72 61 0 0 122 92 51 0 -173 82 0 0 -72 -82 0 0 -306c0,-20 0,-40 0,-40 0,-11 10,-21 10,-21 10,0 21,-10 31,-10 10,0 30,0 41,10z"/>
      </glyph>
      <glyph id="glyph4872" horiz-adv-x="554" unicode="p">
        <path id="path4874" d="M61 -193l0 713 81 0 0 -72c21,31 41,52 72,62 20,10 51,20 81,20 41,0 82,-10 113,-41 40,-20 61,-51 81,-92 21,-40 21,-81 21,-132 0,-51 -10,-102 -21,-143 -20,-41 -51,-82 -81,-102 -41,-20 -82,-30 -123,-30 -30,0 -51,0 -71,20 -31,10 -51,20 -61,41l0 -244 -92 0zm81 448c0,-62 21,-113 41,-143 31,-41 61,-51 102,-51 41,0 72,20 102,51 21,30 41,81 41,153 0,61 -20,112 -41,143 -30,30 -61,51 -102,51 -41,0 -71,-21 -102,-51 -20,-31 -41,-82 -41,-153z"/>
      </glyph>
      <glyph id="glyph4876" horiz-adv-x="554" unicode="u">
        <path id="path4878" d="M408 0l0 71c-41,-51 -102,-81 -164,-81 -30,0 -61,0 -91,20 -21,10 -41,20 -62,41 -10,20 -20,40 -20,61 -10,20 -10,51 -10,81l0 327 92 0 0 -286c0,-51 0,-81 0,-102 10,-20 20,-41 40,-51 21,-10 41,-20 62,-20 30,0 51,10 81,20 21,21 31,31 41,61 10,21 20,51 20,102l0 276 82 0 0 -520 -71 0z"/>
      </glyph>
      <glyph id="glyph4880" horiz-adv-x="498" unicode="s">
        <path id="path4882" d="M30 153l82 10c10,-31 20,-61 41,-72 30,-20 61,-30 102,-30 40,0 61,10 81,20 21,21 31,41 31,61 0,21 -10,31 -21,51 -10,0 -40,11 -91,21 -62,20 -113,30 -133,51 -31,10 -41,20 -61,41 -10,20 -21,51 -21,71 0,20 11,51 21,61 10,21 20,41 41,51 20,11 30,21 61,31 20,0 41,10 71,10 41,0 82,-10 112,-20 31,-10 51,-31 62,-51 20,-21 30,-41 30,-72l-81 -20c-11,30 -21,51 -41,71 -10,10 -41,21 -72,21 -40,0 -71,-11 -91,-21 -11,-20 -21,-30 -21,-51 0,-10 0,-20 10,-30 0,-11 21,-11 31,-21 10,0 31,-10 82,-20 61,-21 102,-31 122,-41 31,-10 51,-31 61,-51 10,-20 21,-41 21,-71 0,-31 -11,-62 -21,-82 -20,-31 -51,-51 -81,-61 -31,-10 -62,-20 -102,-20 -72,0 -123,10 -153,40 -41,31 -62,72 -72,123z"/>
      </glyph>
      <glyph id="glyph4884" horiz-adv-x="668" unicode="É">
        <path id="path4886" d="M71 0l0 717 534 0 0 -123 -390 0 0 -159 364 0 0 -118 -364 0 0 -194 405 0 0 -123 -549 0zm185 758l67 144 153 0 -133 -144 -87 0z"/>
      </glyph>
      <glyph id="glyph4888" horiz-adv-x="276" unicode="í">
        <path id="path4890" d="M91 0l0 520 92 0 0 -520 -92 0zm0 581l62 133 122 0 -112 -133 -72 0z"/>
      </glyph>
      <glyph id="glyph4892" horiz-adv-x="554" unicode="é">
        <path id="path4894" d="M418 163l92 -10c-10,-51 -41,-92 -82,-123 -41,-30 -82,-40 -143,-40 -81,0 -143,20 -183,71 -41,41 -62,112 -62,194 0,81 21,153 62,204 51,41 102,71 173,71 71,0 133,-30 173,-71 41,-51 62,-113 62,-204 0,0 0,-11 0,-21l-388 0c10,-51 20,-102 51,-132 31,-31 71,-41 112,-41 31,0 61,10 82,20 20,21 41,51 51,82zm-286 143l286 0c0,40 -10,81 -31,102 -30,30 -61,51 -112,51 -41,0 -71,-21 -102,-41 -20,-31 -41,-61 -41,-112zm92 275l71 133 113 0 -113 -133 -71 0z"/>
      </glyph>
    </font>
</defs>
</svg>
